프릭스 Freaks 1932 WEBrip 1080p x265 DD+2 0 D0ct0rLew[SEV] 한글자막

익명 0 71


Media Information

Complete name : Freaks 1932 WEBrip 1080p x265 DD+2 0 D0ct0rLew[SEV].mkv 
Format : Matroska 
Format version : Version 4 
File size : 2.80 GiB 
Duration : 1 h 2 min 
Overall bit rate : 6 467 kb/s 
Movie name : Freaks 1932 1080p WEBrip DD+2 0 x265 
Encoded date : UTC 2019-01-11 19:43:22 
Writing application : mkvmerge v29.0.0 ('Like It Or Not') 64-bit 
Writing library : libebml v1.3.6 + libmatroska v1.4.9 

Video 
ID : 1 
Format : HEVC 
Format/Info : High Efficiency Video Coding 
Format profile : Main @Main 
Codec ID : V_MPEGH/ISO/HEVC 
Duration : 1 h 2 min 
Bit rate : 6 113 kb/s 
Width : 1 920 pixels 
Height : 1 080 pixels 
Display aspect ratio : 16:9 
Frame rate mode : Constant 
Frame rate : 23.976 (24000/1001) FPS 
Color space : YUV 
Chroma subsampling : 4:2:0 
Bit depth : 10 bits 
Bits/(Pixel*Frame) : 0.123 
Stream size : 2.65 GiB (95%) 

Audio #1 
ID : 2 
Format : E-AC-3 
Format/Info : Enhanced AC-3 
Commercial name : Dolby Digital Plus 
Codec ID : A_EAC3 
Duration : 1 h 2 min 
Bit rate mode : Constant 
Bit rate : 224 kb/s 
Channel(s) : 2 channels 
Channel layout : L R 
Sampling rate : 48.0 kHz 
Frame rate : 31.250 FPS (1536 SPF) 
Compression mode : Lossy 
Stream size : 99.4 MiB (3%) 
Language : English 
Service kind : Complete Main 
Default : Yes 
Forced : No 

Audio #2 
ID : 4 
Format : AAC LC 
Format/Info : Advanced Audio Codec Low Complexity 
Codec ID : A_AAC-2 
Duration : 1 h 2 min 
Bit rate : 128 kb/s 
Channel(s) : 2 channels 
Channel layout : L R 
Sampling rate : 48.0 kHz 
Frame rate : 46.875 FPS (1024 SPF) 
Compression mode : Lossy 
Delay relative to video : 9 ms 
Stream size : 56.8 MiB (2%) 
Title : Commentary by David J. Skal 
Language : English 
Default : No 
Forced : No 

Text 
ID : 3 
Format : UTF-8 
Codec ID : S_TEXT/UTF8 
Codec ID/Info : UTF-8 Plain Text 
Duration : 1 h 1 min 
Bit rate : 55 b/s 
Count of elements : 1055 
Stream size : 24.9 KiB (0%) 
Language : English 
Default : Yes 
Forced : No 

프릭스 (1932)Freaks평점8.5/10
드라마/공포 미국64분, 15세이상관람가(감독) 토드 브로우닝(주연) 올가 바클라노바, 레일라 하이암스, 월레스 포드
서커스단의 난쟁이 한스는 공중그네를 타는 미녀 클레오파트라를 사랑하게 된다. 거인 헤라클레스와 연인 관계인 클레오파트라는 한스가 막대한 재산을 가지고 있다는 것을 알고, 그와 위장 결혼하여 독살한 계획을 꾸미게 된다. 

(2018년 제12회 시네마테크의 친구들 영화제)

처음으로 를 제작한 토드 브라우닝 감독이 엉덩이가 붙은 샴 쌍둥이, 팔다리 없이 몸뚱이만 있는 남자, 난쟁이 등 실제 ‘프릭스(돌연변이)’를 대거 기용하여 찍은 작품이다. 돌연변이 인간의 무시무시한 복수극을 다룬 이 영화는 충격적인 영상으로 인하여 영국에서 30년간 상영금지를 당했고, 토드 브라우닝 감독 역시 완전히 매장당하게 된다. 1962년 베니스 영화제에서 상영되며 열렬한 지지를 받은 작품이다.

, , , , , , , , ,

  • 페이스북으로 보내기
  • 트위터로 보내기
  • 구글플러스로 보내기
  • 카카오스토리로 보내기
  • 네이버밴드로 보내기
  • 네이버로 보내기
  • 텀블러로 보내기
  • 핀터레스트로 보내기

Comments

New
갱스터 초치 우리말더빙 Tsotsi 2005
우리말 더빙
줄거리폭력적인 아버지와 에이즈를 앓는 어머니를 버려두고 도망 나와 요하네스버그의 타운십에서 깡패두목이 된 초치. 일당들은 지하철에서 살인을 저지… 더보기
New
드래곤: 용의 신부 On drakon 2015 RUSSIAN 1080p BluRay x264 DTS-JYK
-
줄거리"인간의 모습을 한 용과 사랑에 빠진 어린 신부의 이야기"어린 신부는 평화를 위한 의식을 통해 용에게 제물로 바쳐지는 존재였다.  어느 날… 더보기
New
여동생의 비밀 Bleeding.Heart.2015.1080p.BluRay.x264-RUSTED
-
줄거리너무 다른 삶을 살아온 자매 요가강사 '메이'와 매춘부 '시바'부유한 집안에서 자라 자상한 남자친구와 성공한 요가강사로 평화로운 나날을 보… 더보기
New
말레나 Malena.2000.UNCUT.ITALIAN.1080p.BluRay.H264.AAC-VXT
-
줄거리나는 그녀의 너무나 많은 곳을 알고 있다!2차 대전이 한창인, 햇빛 찬란한 지중해의 작은 마을. 매혹적인 말레나. 걸어갈 때면 어린 아이부… 더보기
New
군도:민란의 시대 군도 : 민란의 시대 2014
-
줄거리군도, 백성을 구하라!  양반과 탐관오리들의 착취가 극에 달했던 조선 철종 13년. 힘 없는 백성의 편이 되어 세상을 바로잡고자 하는 의적… 더보기
New
미쓰 와이프 Wonderful Nightmare. 2015.1080p.KOR.FHDRip.H264.AAC
-
줄거리승소율 100% 잘 나가는 싱글 변호사 ‘이연우’뉴욕 본사 발령을 앞두고, 연우(엄정화)는 갑작스러운 교통사고를 당한다. 생사의 위기에 놓… 더보기
New
빈 집 3-Iron.2004.1080p.BluRay.x264-PHOBOS
-
줄거리문을 잠그고 나서는 순간, 아내의 빈 곳으로 그가 들어선다...태석은 오토바이를 타고 집집을 돌며 열쇠구멍에 전단지를 붙인다. 그리고 오랫… 더보기
New
차가운 열대어 冷たい熱帯魚, Cold Fish. 2010.1080p.KOR.FHDRip.H264.AAC-RT…
-
작은 열대어 상점을 운영하는 샤모토는 반항적인 딸과 두번째 부인과 함께 가정을 이루고 살아가고 있다. 친모에 대한 그리움이 두번째 부인과 자신을… 더보기
Hot
아이오 IO.2019.1080p.KOR.FHDRip.H264.AAC-RTM
-
아이오 IO.2019.1080p.KOR.FHDRip.H264.AAC-RTM
아포칼립스 2014 Apocalypse.Pompeii.2014.720p.BluRay.H264.AAC-RARB…
-
줄거리화산 폭발로 사라진 고대 로마 도시 폼페이!2000년 후 또 다른 재앙을 맞이하다!피어스의 아내 린과 딸 미케일라는 피어스의 이탈리아 출장… 더보기
아마데우스 우리말더빙 Amadeus 1984
우리말 더빙
천재를 시기한 평범한 궁정음악가의 질투에서 시작된 광기에 찬 파멸의 서곡!    비엔나 왕실의 궁정음악가 살리에리(F.머레이 아브라함)는 새롭게… 더보기
클로즈 Close (2019) 1080p+720p NF WEB-DL 6CH 1.6GB - MkvCage
-
클로즈 Close (2019) 1080p+720p  NF WEB-DL 6CH 1.6GB - MkvCage
오피서 다운 Officer.Downe.2016.720p.BluRay.H264.AAC-RARBG
-
오피서 다운 Officer.Downe.2016.720p.BluRay.H264.AAC-RARBG
다크 러킹 The.Dark.Lurking.2010.720p.BluRay.H264.AAC-RARBG
-
다크 러킹 The.Dark.Lurking.2010.720p.BluRay.H264.AAC-RARBG
할로우 : 끝나지 않은 공포 The.Hollow.2015.1080p.BluRay.x264-PussyFoot
-
줄거리할로윈 이브날, 이모의 집이 위치한 Shelter Island의 작은 섬마을로 향하던 말리(사라 덕데일)일행은 도중에 일행을 잃어버린다. … 더보기
Hot
아이오 IO.2019.WEBRip.x264-FGT/WEBRip.XviD.AC3-FGT/WEBRip.XviD.…
-
아이오 IO.2019.WEBRip.x264-FGT/WEBRip.XviD.AC3-FGT/WEBRip.XviD.MP3-FGT 
트랜스모퍼: 폴 오브 맨 Transmorphers.Fall.of.Man.2009.1080p.BluRay.x2…
-
줄거리파멸의 시작, 저항할 수 없는 외계로봇의 습격1947년 뉴 멕시코 주에 UFO로 추정되는 정체불명의 비행체가 추락한다. 그들은 매우 뛰어난… 더보기
복면 달호 Highway.Star.2007.1080p.FHDRip.H264.AAC-NonDRM
-
줄거리네박자 뽕필~ 국민 코미디 | 락가수, 트로트로 전국 평정!내일의 락스타를 꿈꾸며 지방 나이트에서 열심히 샤우팅을 내지르던 봉달호(차태현)… 더보기
라디오 스타 Radio Star.2006.H264.1080p-HDTV.EBS
-
언제나 나를 최고라고 말해준 당신이 있어 행복합니다 | 오늘은 왠지~ 내 마음의 스타를 만나고 싶다명곡 비와 당신으로 88년 가수 왕을 차지했던… 더보기
올드보이 [직릴] Oldboy.2003.REMASTERED.BluRay.1080p.x265.10bit.AAC…
-
15년의 감금, 5일의 추적 | 대결의 끝, 하나는 죽는다 | 갇힌남자 최민식 vs 가둔 남자 유지태 | 15년을 기다린 두 남자의 대결 그러나… 더보기