쉰들러 리스트 Schindler's List (1993) (1080p BluRay 10-bit x265 HEVC AAC 5.1…

익명 0 100
    
Media Information

Code:
General 
Format : Matroska 
Format version : Version 4 / Version 2 
File size : 6.73 GiB 
Duration : 3 h 15 min 
Overall bit rate : 4 936 kb/s 
Encoded date : UTC 2019-01-09 15:18:35 
Writing application : mkvmerge v28.0.0 ('Voice In My Head') 64-bit 
Writing library : libebml v1.3.6 + libmatroska v1.4.9 
Writing frontend : StaxRip v1.7.0.0 

Video 
ID : 1 
Format : HEVC 
Format/Info : High Efficiency Video Coding 
Format profile : Main @Main 
Codec ID : V_MPEGH/ISO/HEVC 
Duration : 3 h 15 min 
Bit rate : 4 433 kb/s 
Width : 1 920 pixels 
Height : 1 040 pixels 
Display aspect ratio : 1.85:1 
Frame rate mode : Constant 
Frame rate : 23.976 (24000/1001) FPS 
Color space : YUV 
Chroma subsampling : 4:2:0 
Bit depth : 10 bits 
Bits/(Pixel*Frame) : 0.093 
Stream size : 6.04 GiB (90%) 
Color range : Limited 
Color primaries : BT.2020 
Transfer characteristics : SMPTE ST 2084 
Matrix coefficients : BT.2020 non-constant 
Mastering display color primaries : R: x=0.680000 y=0.320000, G: x=0.265000 y=0.690000, B: x=0.150000 y=0.060000, White point: x=0.312700 y=0.329000 
Mastering display luminance : min: 0.0010 cd/m2, max: 1000.0000 cd/m2 

Audio 
ID : 2 
Format : AAC 
Format/Info : Advanced Audio Codec 
Format profile : LC 
Codec ID : A_AAC 
Duration : 3 h 15 min 
Bit rate : 489 kb/s 
Channel(s) : 6 channels 
Channel positions : Front: L C R, Side: L R, LFE 
Sampling rate : 48.0 kHz 
Frame rate : 46.875 FPS (1024 spf) 
Compression mode : Lossy 
Delay relative to video : 20 ms 
Stream size : 683 MiB (10%) 
Title : 5.1 Surround (AAC) 
Language : English 
Default : Yes 
Forced : No 

Subtitle #1 
ID : 3 
Format : UTF-8 
Codec ID : S_TEXT/UTF8 
Codec ID/Info : UTF-8 Plain Text 
Duration : 3 h 4 min 
Bit rate : 53 b/s 
Count of elements : 2176 
Stream size : 72.1 KiB (0%) 
Title : English 
Language : English 
Default : Yes 
Forced : No 

쉰들러 리스트 (1993)Schindler's List평점8.9/10
드라마/전쟁 미국1994.03.05 개봉2019.01 (재개봉)196분, 15세이상관람가(감독) 스티븐 스필버그(주연) 리암 니슨

1939년, 독일에게 점령당한 폴란드의 한 도시. 독일인 사업가이자 냉정한 기회주의자인 오스카 쉰들러는 유태인이 경영하는 그릇 공장 인수를 위해 수단과 방법을 아끼지 않는다. 인건비 없이 수백명의 유태인을 고용한 오스카 쉰들러는 우연히 유태인 회계사인 스턴과 가까워지고, 나치에 의해 참혹하게 학살되는 유태인들의 참혹한 실상을 마주하게 된다. 서서히 그의 양심이 흔들리기 시작하고, 마침내 강제 노동 수용소로부터 유태인들을 구하기로 결심한다. 그렇게 그는 자신이 구해낼 유태인 명단이 적힌 쉰들러 리스트를 만드는데… 

, , , , , , , , , , , , , , ,

  • 페이스북으로 보내기
  • 트위터로 보내기
  • 구글플러스로 보내기
  • 카카오스토리로 보내기
  • 네이버밴드로 보내기
  • 네이버로 보내기
  • 텀블러로 보내기
  • 핀터레스트로 보내기

Comments

New
악마는 프라다를 입는다 The Devil Wears Prada. 2006.720p.KOR.FHDRip.H26…
-
줄거리화려한 뉴욕을 꿈꾸는 자,그 무게를 견뎌라!최고의 패션 매거진 ‘런웨이’에 기적 같이 입사했지만 ‘앤드리아’(앤 해서웨이)에겐  이 화려한… 더보기
New
평행이론: 도플갱어 살인 Coherence.2013.1080p.BluRay.X264-iNVANDRAREN[r…
-
줄거리“혜성 때문에 사람들이 혼란에 빠졌지혜성이 지나간 후 몇몇 사람들이 사라졌다가 엉뚱한 곳에서 나타났는데그들은 아무 기억이 없었고 어디에 있… 더보기
New
더 웨이브 [재난 영화] Wave (2015) + Extras (1080p BluRay x265 HEVC 1…
-
시속 600km의 쓰나미, 생존 대피시간 단 10분!  북유럽을 덮친 사상최악의 재난실화가 온다!    '기다려, 아빠가 꼭 구해줄게!'    … 더보기
New
막스 마누스 Max.Manus.2008.NORWEGIAN.720p + 1080p.BluRay.H264.AAC…
-
2차대전 당시 노르웨이 전쟁영웅의 일대기를 그린 작품
New
아들에게 가는 길 Agagil.(Journey.to.my.boy).2016
-
줄거리소리 없는 진심을 전하러 갑니다가장 특별한 가족의 성장통 이야기듣지도, 말하지도 못하는 부부 ‘보현’과 ‘성락’은 하나뿐인 아들의 미래를 … 더보기
New
곡성(哭聲) The.Wailing.2016.LIMITED.720p.BluRay.x264-DEPTH/LIMIT…
-
줄거리낯선 외지인(쿠니무라 준)이 나타난 후 벌어지는 의문의 연쇄 사건들로 마을이 발칵 뒤집힌다.  경찰은 집단 야생 버섯 중독으로 잠정적 결론… 더보기
New
변호인 (요청 자료) The Attorney. 2013.1080p.KOR.FHDRip.H264.AAC
-
줄거리“당신의 소중한 돈을 지켜드립니다”1980년대 초 부산.  빽 없고, 돈 없고, 가방끈도 짧은 세무 변호사 송우석(송강호). 부동산 등기부… 더보기
Hot
레인 오브 더 슈퍼맨 Reign of the Supermen (2019) 1080p BRRip 6CH 1.6…
-
레인 오브 더 슈퍼맨 Reign of the Supermen (2019) 1080p BRRip 6CH 1.6GB - MkvCage
Hot
아스테릭스: 미션 올림픽 게임 Asterix at The Olympic Games 2008 BluRay 72…
-
로마의 황제 ‘줄리어스 시저’의 양아들이며 뭐든지 우기는 것이 취미이자 반칙이 특기인 만년 2인자 ‘브루투스’. 그는 그리스의 사랑스러운 공주 … 더보기
Hot
타이타닉 [4K] Titanic.1997.UHD.2160p.Blu-ray.x265.HDR.DTS-HDMA.5…
-
줄거리“내 인생의 가장 큰 행운은 도박에서 딴 티켓으로 당신을 만난 거야”단 하나의 운명, 단 한 번의 사랑,영원으로 기억될 세기의 러브 스토리… 더보기
광해, 왕이 된 남자 Masquerade (2012) 720p BRRip 1.2GB - MkvCage
-
줄거리역사에 기록되지 않은 또 한 명의 광해왕위를 둘러싼 권력 다툼과 붕당정치로 혼란이 극에 달한 광해군 8년. 자신의 목숨을 노리는 자들에 대… 더보기
Hot
크로즈 썸 カラスの親指, Crow's Thumb. 2012.720p.KOR.HDRip.H264.AAC-RTM
-
패배뿐인 인생을 살아온 2명의 사기꾼에게도 과거에 일으킨 어떠한 사건을 계기로 인생의 재역전을 노릴만한 일생 일대의 기회가 찾아오게 된다.
Hot
피쉬 탱크 Fish.Tank.2009.1080p.BluRay.H264.AAC-RARBG
-
줄거리불현듯 찾아 온 행복에 새로운 희망을 꿈꾼다.여느 열다섯 살 아이들처럼, 외톨이 미아는 늘 고민이 많고 학교에서도 문제아다. 여름방학 동안… 더보기
Hot
렛 미 인 Let.The.Right.One.In.2008.SWEDISH.1080p.BluRay.H264.AA…
-
줄거리“내가.. 평범한 여자애가 아니어도 좋아해줄래?”  12살 소년, 영원한 사랑을 만나다..    눈 내리던 밤, 외로운 소년 오스칼은 옆집… 더보기
Hot
헤드헌터 (노르웨이) Headhunters.2011.NORWEGIAN.1080p.BluRay.H264.AAC…
-
줄거리숨돌릴 틈 없는 추격전! 오늘의 사냥꾼이 내일의 표적이 된다!FBI가 사용하는 전문 심리 기법을 통해 사람들의 마음을 꿰뚫어보는 탁월한 헤… 더보기
Hot
굿나잇 마미 Goodnight.Mommy.2014.LIMITED.1080p.BluRay.x264-USURY
-
오스트리아의 외딴 마을. 아홉 살짜리 쌍둥이 형제는 성형수술을 받고 온 엄마와 재회한다.  얼굴에 붕대를 감은 채 돌아온 엄마는 형제들에게 방문… 더보기
Hot
고독한 늑대 Lone.Wolf.McQuade.1983.1080p.BluRay.x264-MOOVEE-[rarb…
-
J.J. 맥케이드(J.J. McQuade: 척 노리스 분)는 텍사스 엘파소 지역의 치안을 담당한 순찰 대원. 뛰어난 총격술과 무술로 많은 사건들… 더보기
Hot
나의 인생 나의 기타 우리말더빙 The Guitar 2008
우리말 더빙
뉴욕 사는 멜로디는 주치의로부터 암 말기 판정을 받는다. 앞으로 살날은 한달, 잘해야 두달 이라는 선고를 받는다. 터덕 터덕 사무실로 돌아가는 … 더보기
Hot
갱스터 초치 우리말더빙 Tsotsi 2005
우리말 더빙
줄거리폭력적인 아버지와 에이즈를 앓는 어머니를 버려두고 도망 나와 요하네스버그의 타운십에서 깡패두목이 된 초치. 일당들은 지하철에서 살인을 저지… 더보기
Hot
드래곤: 용의 신부 On drakon 2015 RUSSIAN 1080p BluRay x264 DTS-JYK
-
줄거리"인간의 모습을 한 용과 사랑에 빠진 어린 신부의 이야기"어린 신부는 평화를 위한 의식을 통해 용에게 제물로 바쳐지는 존재였다.  어느 날… 더보기