쟈니 잉글리쉬 스트라익스 어게인 Johnny English Strikes Again (2018) (1080p BluRay 10…

    
Media Information

Code:
General 
Format : Matroska 
Format version : Version 4 / Version 2 
File size : 1.54 GiB 
Duration : 1 h 28 min 
Overall bit rate : 2 484 kb/s 
Encoded date : UTC 2019-01-11 02:48:49 
Writing application : mkvmerge v30.1.0 ('Forever And More') 64-bit 
Writing library : libebml v1.3.6 + libmatroska v1.4.9 

Video 
ID : 1 
Format : HEVC 
Format/Info : High Efficiency Video Coding 
Format profile : [email protected] 
Codec ID : V_MPEGH/ISO/HEVC 
Duration : 1 h 28 min 
Bit rate : 2 025 kb/s 
Width : 1 920 pixels 
Height : 804 pixels 
Display aspect ratio : 2.40:1 
Frame rate mode : Constant 
Frame rate : 23.976 (24000/1001) FPS 
Color space : YUV 
Chroma subsampling : 4:2:0 
Bit depth : 10 bits 
Bits/(Pixel*Frame) : 0.055 
Stream size : 1.25 GiB (82%) 

Audio 
ID : 2 
Format : AAC 
Format/Info : Advanced Audio Codec 
Format profile : LC 
Codec ID : A_AAC 
Duration : 1 h 28 min 
Bit rate : 444 kb/s 
Channel(s) : 8 channels 
Channel positions : Front: L C R, Side: L R, Back: L R, LFE 
Sampling rate : 48.0 kHz 
Frame rate : 46.875 FPS (1024 spf) 
Compression mode : Lossy 
Delay relative to video : 9 ms 
Stream size : 281 MiB (18%) 
Language : English 
Default : Yes 
Forced : No 

Subtitle 
ID : 3 
Format : PGS 
Muxing mode : zlib 
Codec ID : S_HDMV/PGS 
Codec ID/Info : Picture based subtitle format used on BDs/HD-DVDs 
Duration : 1 h 22 min 
Bit rate : 45.9 kb/s 
Count of elements : 2603 
Stream size : 27.1 MiB (2%) 
Language : English 
Default : Yes 
Forced : No 

쟈니 잉글리쉬 스트라익스 어게인 (2018)Johnny English Strikes Again
액션/어드벤처/코미디 영국, 프랑스, 미국88분, 미국 PG 등급(감독) 데이비드 커(주연) 로완 앳킨슨

, , , , , , , , , , , , , , , , , , ,

  • 페이스북으로 보내기
  • 트위터로 보내기
  • 구글플러스로 보내기
  • 카카오스토리로 보내기
  • 네이버밴드로 보내기
  • 네이버로 보내기
  • 텀블러로 보내기
  • 핀터레스트로 보내기

Comments

New
모털 엔진 Mortal Engines. 2018.1080p.KOR.FHDRip.H264.AAC-RTM
-
.줄거리움직이는 모든 것을 집어삼키려는 거대도시 ‘런던’  탐욕스러운 거대도시 런던으로부터 세상을 지키려는 ‘저항 세력’  숨겨진 공중… 더보기
New
미스터 스마일 (로버트 레드포드).The.Old.Man.and.the.Gun.2018.720p + 1080p…
-
줄거리“전 지금 은행을 털러 왔어요, 제 가방에 현금을 채워주세요”머리부터 발끝까지 단정한 슈트로 풀착장, 얼굴엔 미소를 잃지 않고 우… 더보기
New
디스트럭션 LA Destruction.Los.Angeles.2017.720p.AMZN.WEBRip.DDP5.…
-
디스트럭션 LA Destruction.Los.Angeles.2017.720p.AMZN.WEBRip.DDP5.1.x264-NTG
Hot
모털 엔진 [자체 한글] Mortal.Engines.2018.720/1080p.KORSUB.HDRip.x26…
-
움직이는 모든 것을 집어삼키려는 거대도시 ‘런던’  탐욕스러운 거대도시 런던으로부터 세상을 지키려는 ‘저항 세력’  숨겨진 공중도시 ‘… 더보기
New
이프 빌 스트리트 쿠드 토크 If.Beale.Street.Could.Talk.2018.DVDScr.XVID.…
-
할렘가를 배경으로 뱃속에 있는 아이를 돌보며 인종차별에 맞서 남편의 결백을 입증하려는 여성 티시의 이야기
New
작은 아씨들 Little.Women.2018.1080p.WEB-DL.DD5.1.H264-FGT/DVDRip.…
-
작은 아씨들 Little.Women.2018.1080p.WEB-DL.DD5.1.H264-FGT/DVDRip.x264-LPD
New
쓰리 빌보드 Three.Billboards.Outside.Ebbing.Missouri.2017.720p.Bl…
-
내 딸이 죽었다”“아직도 범인을 못 잡은 거야?”“어떻게 그럴 수가 있지 경찰 서장?”세 개의 빌보드 광고판에 새겨진 엄마의 분노, 세… 더보기
New
그린치 The.Grinch.2018.720p.WEB-DL.2CH.x265.HEVC-PSA
-
줄거리모두가 행복한 크리스마스를 참을 수 없는 그린치는 크리스마스를 훔치기 위해 산타가 되기로 결심한다.  그린치는 만능집사 맥스, 덩… 더보기
New
도그맨 (이탈리아).Dogman.2018.ITALIAN.720p + 1080p.BluRay.H264.AAC-…
-
순박한 애견 미용사 마르첼로는 이웃 모두와 화목하게 지내지만, 마을의 난봉꾼인 친구 시모네와 얽히면서 걷잡을 수 없는 상황에 빠져든다.… 더보기
New
가을 우체국 Autumn.Sonata.2017.720p
-
줄거리인생의 2막을 준비하는 서른을 앞둔 ‘수련’오직 수련과의 결혼이 인생 목표인 ‘준’꿈 같은 미래를 준비하던 수련은  자신이 인생에… 더보기
Hot
호두까기 인형과 4개의 왕국 The Nutcracker and the Four Realms. 2018.108…
-
“누구나 알고 있지만 아무도 모르는 이야기”크리스마스 이브,  대부 ‘드로셀마이어’의 파티에 참석한 ‘클라라’는  돌아가신 엄마의 마지… 더보기
Hot
후드 Robin Hood. 2018.1080p.KOR.FHDRip.H264.AAC-RTM
-
우리가 기다려온 새로운 영웅의 탄생!세상을 뒤집을 통쾌한 한방이 시작된다.돈과 권력을 앞세운 권력층으로 인해 모두가 힘들어진 시기.  … 더보기
Hot
아스테릭스 2 - 미션 클레오파트라 우리말더빙 듀얼오디오 한글자막 bluray 720p
우리말 더빙
로마에 의해 모든 지역이 통치되던 기원전 52년. 골지방과 이집트도 예외가 아니었던 그 시대에 높은 콧대를 자랑하는 클레오파트라(모니카… 더보기
Hot
후드 [자체 한글] Robin Hood (2018) English HC HDRip 720px264-AAC-9…
-
 줄거리우리가 기다려온 새로운 영웅의 탄생!세상을 뒤집을 통쾌한 한방이 시작된다.돈과 권력을 앞세운 권력층으로 인해 모두가 힘들어진 시… 더보기
Hot
덕구 Stand.By.Me.2018.1080p.WEB.H264-INFLATE
-
"당신에게도 소중한 사람이 있습니까?"어린 손자와 살고 있는 일흔 살 덕구 할배는 자신에게 주어진 시간이 얼마 남지 않음을 알게 된다.… 더보기
Hot
스윙키즈 Swing Kids. 2018.1080p.FHDRip.H264.AAC-NonDRM
-
줄거리“여기서 댄스단 하나 만들어 보는 거 어때? 포로들로”1951년 한국전쟁, 최대 규모의 거제 포로수용소. 새로 부임해 온 소장은 … 더보기
Hot
상류사회 (확장판) High Society. 2018.FHDRip.H264.AAC
-
줄거리“왜, 재벌들만 겁 없이 사는 줄 알았어?”학생들에게 인기와 존경을 동시에 받는 경제학 교수 ‘태준’(박해일)은 우연한 기회를 통… 더보기
Hot
더 렐름 The.Realm.2018.720p.BluRay.x264-USURY
-
더 렐름 The.Realm.2018.720p.BluRay.x264-USURY 
Hot
시스터스 브라더스 The.Sisters.Brothers.2018.1080p.BluRay.REMUX.AVC.D…
-
시스터스 브라더스 The.Sisters.Brothers.2018.1080p.BluRay.REMUX.AVC.DTS-HD.MA.5.1-FG… 더보기
Hot
레이디라이크 Lady-Like.2018.720p.10bit.WEBRip.6CH.x265.HEVC-PSA
-
레이디라이크 Lady-Like.2018.720p.10bit.WEBRip.6CH.x265.HEVC-PSA